Sherlock, Season 1, episode 1 transcript: A Study in Pink, part 1 It’s two years late. and other cell phones. Art, Music, Cinema & TV THREE SHORT STORIES OF SHERLOCK HOLMES with Au. Hear about sales, receive special offers & more. The Hobbit An Unexpected Journey (2012. Boys Meet U is the second Japanese studio album by South Korean boy band Shinee, released on June 26, 2013, in Japan by EMI Records Japan Background and release. SHERLOCK HOLMES E LA DONNA RAGNO (Sherlock Holmes And The Spider Woman) Regia: Roy William Neill Produttore: Roy William Neill Sceneggiatura:Bertram Millhauser (Personaggi di A. Store & share your files with uploaded. Scientifically educated, he believed in séances and fairies. Check the tone of your message before you hit send. After the intro, it’s all: C-string = thumb. Where is Mr Hosmer Angel? Which student saw the exam paper before the exam? Why is someone following Miss Smith? Can you find the answer before Sherlock. Assimil - Le Nouvel Allemand Sans Peine MP3 PDF. Your trusted source for mental health information. Sherlock holmes worksheets: Sherlock Holmes case IX: Active and passive Level: intermediate Age: 10-17 Downloads: 1652 Sherlock Holmes Level: intermediate Age: 13-17 Downloads: 776 Sherlock Holmes case XIII: Infinitive and ing-form Level: intermediate Age: 10-17 Downloads: 642 Sherlock Holmes case XII: Question tags Level: intermediate Age: 10. Watsonnal foglalkozó topicot kb. Assimil - Le Nouvel Allemand sans Peine( plan + search) - Demonoid. We get glimpses of it in use at various times throughout the Canon, from a biographical reference to a logging of crime. Today most websites are difficult to browse offline. ”[1] Thus the character of Sherlock Holmes has become proverbial,[2] but was that feat accomplished through the use of proverbs. Referring to himself as a 'consulting detective' in the stories, Holmes is known for his proficiency with observation, forensic science, and logical reasoning that borders on the fantastic, which he employs when. Titles include Eurus' song from the Sherlock episode The Final Problem, as well as a song from Shakespeare's Twelfth Night. JDownloader is a free, open-source download management tool with a huge community of developers that makes downloading as easy and fast as it should be. The Return of Sherlock Holmes by Sir Arthur Conan Doyle is the second collection of short stories featuring the famous detective Sherlock Holmes. Kobo Touch, eReaders and eBooks: Home and Index; Kobo Touch; Free e-Books; Calibre (eReader software) Linux and Ubuntu. The Adventures of Sherlock Holmes is a collection of twelve stories by Sir Arthur Conan Doyle, featuring his famous detective and illustrated by Sidney Paget. January 24 2012. We have over 12,000 OTR shows available for instant listening. Available on all your devices, all the time, even without WiFi or 4G. Science news and science articles from New Scientist. Weebly’s free website builder makes it easy to create a website, blog, or online store. Sherlock Holmes audiowalk: Part one. Sherlock Holmes: Ah, but there's more! Before Bluebell disappeared, it turned luminous, "like a fairy," according to little Kirsty, then the next morning Bluebell was gone, hutch still locked, no sign of a forced entry. for your eBook reader or Apple device. org Sherlock Holmes is the name given to the TV series of Sherlock Holmes adaptations produced by British television company Granada Television between 1984 and 1994, with the first two series bearing the title The Adventures Of Sherlock Holmes on screen and being followed by subsequent sub-series bearing the titles of the other short. Downloading the soundtrack on the internet is illegal. , Jude Law Sherlock Holmes is a 2009 British-American action mystery film based on the character of the. Monday, April 27, 2020. We have over 12,000 OTR shows available for instant listening. 74 shows, including 9 Command Performance, 4 Lux Radio Theatre, 26 Rocky Fortune, 7 Songs By Sinatra, and many guest appearances with top comedians of the day. Be reassured that your reader will react the way you expect based on your intended tone. The Casebook of Sherlock Holmes II contains the last six stories as published in The Strand Magazine plus as a bonus a story written by Mr Timson himself. Best Sherlock Holmes Books, Movies, DVDs, & More With so many new books, movies, and television shows featuring Sherlock Holmes, it can be difficult to know what's worth reading or watching. Or search for your favorite song. Combining the iconic sounds of classical orchestra instruments with a modern electronic ambient style, this collection offers more than 50 tracks and is available in MP3 320 kbps. From Mercury to Mars: The Shadow of the Great Detective: Orson Welles and Sherlock Holmes on the Air I predict that one day an obsessed fan — maybe you, dear reader — will devise a complete and thorough catalogue of all the characters that Orson Welles ever played (or claimed to have played) on radio. Listen and download to an exclusive collection of sherlock ringtones for free to personolize your iPhone or Android device. (John's pov) I had no idea why I was doing this. With VDownloader you can download entire playlists or channels with a single click, download in 4K or 8K, easily add a. Turn Sherlock recorder to ON positon 5. The mp3 juice website supports many mp3juice music, in addition to MP3 converter, our converter can also convert Mp3juice MP4 format, even HD video 720p, 1080p. by Arthur Sippo on January 1, 2017 ART’S REVIERWS: Chuck Miller discusses “Sherlock Holmes: The Picture of Innocence” 2017-01-17T06:04:18-08:00 - Art’s Reviews, Podcast Share Tweet. Along with the feature film, the Blu-Ray disc includes the following extras: Line-o-Rama (5:35) - These are alternate takes from what's in the finished film. com - best resource for reading books. Scroll down to see the shows. Sweet girl love image. DOWNLOAD FULL HOLLYWOOD HIGH QUALITY MOVIES IN HINDI. Moviesoundclips. Willie Comer-Matinpour. Free Mp3 Songs Download. After processing of payment, the links will be made available. I sat next to the strange man known as Sherlock Holmes in a taxi on our way to a crime scene whilst I continued to question my present actions. Mar 23, 2013 - Mp3. Тем: 29 Сообщ. With no background search indexing, FileSeek will never affect the performance of your computer while closed. Parses MP3 and OGG files, and stores their ID3 tags. Sherlock, Season 1, episode 1 transcript: A Study in Pink, part 1 It's two years late. Montcalm, WV, USA. Carlton read by M. Buy Tickets Show Info. Users can start, stop or pause downloads, set bandwith limitations, auto-extract archives and much more. Readme (PDF). Assimil - Le Nouvel Allemand sans Peine( plan + search) - Demonoid. It would be best to buy it on eBay or Amazon. Royalty free music is what everyone wants, because royalties suck. Facebook;. Sherlock Holmes A Study in Scarlet. [ About file ] Name: 38 - [DivX Ita] Sherlock Holmes -38- I pince-nez dorati. 67: Sherlock Holmes ASMR - A Case of Identity Part 3 8th August 2017 18th September 2017 The ASMR Podcast Team Sherlock ASMR In Episode 67 of The ASMR Podcast we welcome back Sherlock ASMR, who continues his series of whispered Sherlock Holmes readings with the third part of 'A Case of Identity'. Combining the iconic sounds of classical orchestra instruments with a modern electronic ambient style, this collection offers more than 50 tracks and is available in MP3 320 kbps. From the stars of Mystery Science Theater 3000 comes RiffTrax, hilarious audio commentaries for your favorite - and not-so-favorite - movies!. Bob Brigham's Gold Chariot Mini white CDR contained within a clear 5" jewel case. There have been 560 views and 2 downloads. 15 kb: number of downloads: 480521: Download: Back to Sherlock. Be aware that documentaries, foreign, animated and black & white movies have their own sections. Male And Female Viagra Uk. Welcome to Old Radio World! Here you will find some of the most popular radio programs of the 1930s, 1940s and 1950s. The Adventures of Harry Nile. Fantasy Factory. Earlier this year Corsair launched their 5400UL part which is designed to offer impressive timings (3-3-2-8) at 675MHz DDR. Discover the enchanting vibes of Sherlock Holmes games through this original soundtrack that includes music from the latest three adventures. With over 40 different short stories, and four full-length Holmes novels, get the full detective experience with this complete collection! At the center of each story stands the iconic figure of Holmes-brilliant, eccentric, and. Includes unlimited streaming of Index Hole via the free Bandcamp app, plus high-quality download in MP3, FLAC and more. kids FAQ on Firearms Safety & Children misc-kids/good-things - misc. Keen, Tracer Of Lost Persons. 9 MiB | 576x320 | XviD @ 817 Kbps | MP3 @ 63. The episode was first broadcast on BBC One, PBS, Channel One and 1+1 on 15 January 2017. Thank you for all the requests I received for those. Available with an Apple Music subscription. Everyday low prices on a huge range of new releases and classic fiction. Movies Tv Shows Sound Effects Video Games People Misc Request Store Links About this Site Twitter. Please login or register to post messages and view our exclusive members-only content. But certain people (*glares pointedly in the direction of the north of England*) kept on nagging and moaning and complaining and saying that even at this late stage Season 1 transcripts would be still useful for fic-writing purposes, and eventually I couldn't stand the non-stop whining any longer. ENERGY STAR® is the simple choice for energy efficiency. The Complete Sherlock Holmes (Barnes & Noble Leatherbound Classics) 4. “The Adventures of Sherlock Holmes and Dr. worldwide access via browser. Sherlock Holmes Torrent Results: Sherlock Holmes 0 hour(s) and 30 minutes - TV Series - Based on the characters created by Arthur Conan Doyle: Dr. Science news and science articles from New Scientist. Тем: 29 Сообщ. Pierre et gestion rue gassendi. In the name of the LORD, the Everlasting God--Genesis 21,33. October 29 2012. Every day, thousands of people around the world write about music they love — and it all ends up here. Only an hour or so with broadband. Sherlock, starring Benedict Cumberbatch as Sherlock Holmes and Martin Freeman as John Watson, became a national phenomenon, being discussed in the House of Commons, Tweeted across the globe and even inspiring the next Autumn men's collections. 1041 George Rogers Blvd. Jekyll and Mr. parts: A Case of Identity (Sherlock Holmes) A Scandal in Bohemia (Sherlock Holmes) The Adventure of the Beryl Coronet (Sherlock Holmes) The Adventure of the Blue Carbuncle (Sherlock Holmes) The Adventure of the Copper Beeches (Sherlock Holmes) The Adventure of the Engineer's Thumb (Sherlock Holmes) The Adventure of the Noble Bachelor (Sherlock Holmes) The Adventure of the Red-Headed League. Buy Tickets Show Info. And it never quite seemed like it was organized in a sensible. 2M : Ape Woman. The Narrative of John Smith by Arthur Conan Doyle: The Publication of His Lost First Novel. All episode transcripts - in full. Royalty-Free Music. S1 E2 Sep 29, 2014. I just wanted to let you know that I LOVE,LOVE, LOVE your Newsletter & I so appreciate being able to have access to such wonderful information and the links provided!! Thank you so much for making it so easily available. Il Fiuto di Sherlock Holmes S1e11-20 [Divx - Ita Ac3] Cover e Autorun [CURA] Progetto Ghibli e Miyazaki - Ciclo Sherlock Holmes [XviD - Ita Mp3] 3 Torrent - 64 Ep. Below, you'll find great works of fiction, poetry and non-fiction, by such authors as Twain, Tolstoy, Hemingway, Orwell, Vonnegut, Nietzsche, Austen, Shakespeare, Asimov, HG Wells & more. wav" WAVE TRACK 01 AUDIO TITLE "How It Was Done" PERFORMER "David Arnold & Michael Price" FLAGS DCP INDEX 01 00:00:00 FILE "02 - God Rest His Soul. 10ml glass vial of diluted Quinoline Yellow sits in case spine. The Further Adventures of Sherlock Holmes. Free episodes of your favourite TV series and. Torrentz is a free, fast and powerful meta-search engine combining results from dozens of search engines. All of our materials have been verified through OTTER, the hobby's premier database program. 2020-02-18T13:36:44Z Comment by Norbert Giel. You can unsubscribe at any time. for mobi-based readers like Amazon's. Credits: Thanks to Doitsu for the original Sigil work and for beta-testing. War comes to Harry Nile. Choose a category and take a link to the page. I bought my copy of this publication 35 years ago. Exact Audio Copy V1. The Beeb's new show 'Sherlock' is, indeed, a modern interpretation of our favorite consulting detective. PDFs using default settings. Testing: All testing was done on a Windows 10 x64 PC running calibre x64 and using voices of various dialects of English. 3/3 Alone and defenceless, Sherlock and Dr Watson face their greatest ever challenge. Sherlock Dow Accomplished Technology Strategist, IT Service Management, Global Operations, ITIL v3 Foundation Freehold, New Jersey 500+ connections. Watsona, tumači Martin Freeman. Обои на рабочий стол/картинки/арты: Bleach [Jpg, 1024x768-192 0x1 12-Фев-16 08:15 by gemini-vit. Great Mystery Dramas - Sherlock Holmes - Harry Nile. Sherlock Holmes: The Definitive Collection - Because who doesn't want 72 hours of Stephen Fry reading Sherlock Holmes novels? This just popped up on my Twitter from Audible UK, but I imagine it'll be available on other Audible sites as well. Find customizable templates, domains, and easy-to-use tools for any type of business website. Choose from a selection of easy-to-use templates – all with flexible layouts and hundreds of background images – or design something new. Holmes is a Sherlock Holmes pastiche novel by Loren D. There is a separate page of free audiobooks and old time radio listings for this genre: Free Mystery, Detective, Thriller & Crime (Fiction) Audiobooks & OTR Shows All of these sites listed have content that is legal for them to distribute and for you to download and/or. "The Final Problem". 1 decade ago. CD MP3 - PR2 THREE SHORT STORIES OF SHERLOCK HOLMES with Au. This publication is the most complete, and most authentic compilation of the. Borrow and read free ebooks, audiobooks, and magazines from your library using your phone or tablet. He is the creation of Scottish author and physician Sir Arthur Conan Doyle. You can write a book review and share your experiences. GameSpot delivers the best and most comprehensive video game and entertainment coverage, including news, reviews, trailers, walkthroughs, and guides for PS4, Xbox One, Nintendo Switch, PC, and. i love sherlock. The fantastic London-based "consulting detective", Holmes is famous for his astute logical reasoning, his ability to take almost any disguise, and his use of. Other readers will always be interested in your opinion of the books you've read. sezona 2014. Over next few days and months I will try to illuminate on issues that the bible simply titles The Strong Delusion. This software will read aloud the Sherlock Holmes stories to. com your best source for free audio books. Download mp3s for free!. using PERL. The Adventures of Sherlock Holmes is a collection of twelve stories by Sir Arthur Conan Doyle, featuring his famous detective and illustrated by Sidney Paget. It would be best to buy it on eBay or Amazon. 1 Khz and encoded at 256 Kbps Bitrate. © 2020 All rights reserved | 2 The Circle (PO Box 589), Georgetown, DE 19947 | (302) 855-7700. Also, if you have an iPod, iTunes has the soundtrack, which you can legally download to your iPod. Check out Sherlock (Soundtrack From The TV Series) by David Arnold & Michael Price on Amazon Music. Today most websites are difficult to browse offline. Are you an audiophile? With this simple test you'll be able to find out whether you can hear the difference between a low quality song and a two-and-a-half times larger high fidelity mp3 file. Clean up business and consumer lists. Electrolux shapes living for the better by reinventing taste, care and wellbeing experiences, making life more enjoyable and sustainable for millions of people. Mechon Mamre. (John's pov) I had no idea why I was doing this. Distributed Syslog collector and viewer system with reliable Syslog msgs over tcp, and query with reg ex. mp3) Transfer of files (completed recordings). This show originated from OTRR Library and was uploaded October 14, 2014. 10ml glass vial of diluted Quinoline Yellow sits in case spine. 1: audio ISFT: VirtualDubMod 1. Hear about sales, receive special offers & more. Sound (MP3) Sam Spade: Breaking Point: Sound (MP3) Nightfall: Buried Alive: Sound (MP3) Nightfall: Carmilla: Sound (MP3) Nightfall: Case of Alice Faulkner: Sound (MP3) Sherlock Holmes: Cemetery Stop: Sound (MP3) Nightfall: Child's Play: Sound (MP3) Nightfall: Danny Kaye: Sound (MP3) Biography in Sound: Deadly Developments: Sound (MP3) Nightfall. 「自己紹介が必要かな? 私は、探偵だ。英雄を望んでいたなら残念と言う他ないが探偵や推理家を所望なら、君は良いカードを引き当てた」. This replacement for Apple's Find File function does much more than just find files. Sherlock Holmes ' London: The Investigation (2011) DVDRip XviD-DMZ Language: English AVI | 350. 84 MB Sherlock Holmes The Boscombe Valley Mystery. Sherlock Season 4 Episode 1 S04E01 (2017) 720p. You, sitting between the two men, leaned your head against the headrest of the seat, eyes closed as you think over this case. , Kt, KStJ, D. Entertainment); Kobalt Music Publishing, BMI. Sherlock and John Watson return in a contemporary take on Conan Doyle's iconic adventures. Today was proving to be more eventful than I'd ever imagined it would have been. 95 By: Grreat Ideas. kids FAQ on Good things about having kids. Relive the golden age of radio today! Hear your favorite old time radio shows and discover amazing broadcast from yesteryear by ordering your favorite old time radio shows. index ≡ ask ≡ twitter ☺ icons and headers of BBC Sherlock // cast ☺ heardyousaynottoday-mp3 reblogged this from 221bicons. Last updated: If your site is listed by us, please put this logo in your page to remind your users an easy way to find your site. 19; Next >. 0: video Track nr. Gujarati indic input 2 download 64 bit. If you want help planning your lessons, you've come to the right place! We have hundreds of high-quality resources to help you in the classroom as well as articles, videos, publications and courses to help you with your continuing professional. S1 E7 Nov 03, 2014. This publication is the most complete, and most authentic compilation of the. The novel is an account of Holmes' dealing with the mystery of Dr. 26 No comments In 1891 London, Sherlock Holmes (Robert Downey, Jr. Downloading the soundtrack on the internet is illegal. In a recent interview on HeyUGuys. Sherlock Gnomes (2018) 1080p Bluray Streaming Film Bioskop, Download Film Terbaru Sub Indonesia, Bioskop Online, INDOXXI, Cinema 21, LK21 - BotamMovie. You, sitting between the two men, leaned your head against the headrest of the seat, eyes closed as you think over this case. The Beeb's new show 'Sherlock' is, indeed, a modern interpretation of our favorite consulting detective. Last updated: If your site is listed by us, please put this logo in your page to remind your users an easy way to find your site. The first collection of stories featuring the legendary detective Sherlock Holmes, one of the most famous and beloved detectives in fiction. Powys Quoits 2. Sherlock je britanska kriminalistička TV serija koja predstavlja suvremenu inačicu detektivskih priča o Sherlocku Holmesu čiji je autor Arthur Conan Doyle. Sherlock Holmes Search Engine What's that? Sherlock Holmes is a universal search engine – a system for gathering and indexing of textual, image, and audio data (text files, web pages, ), both locally and over the network. 3 out of 5 based on 0 ratings. Watsona, tumači Martin Freeman. Download Sherlock Special: The Abominable Bride subtitles. Mar 12, 2014, 11:21 pm. 8 (1,077) Rate Newly released from prison, a brooding young woman named Bonnie sets out to avenge the death. It was a violin. org may be for sale. Using an index of your drive, Sherlock can find files by title as well as written content inside the file - and do it quickly. 10 – Maveric. parts: 1: Rip: WEB-DL: release: filename: Sherlock The Abominable Bride. When done TURN OFF VOICE RECORDER BEFORE unplugging speaker. Interior of Mercedes-Benz's new E63 AMG Saloon. GameSpot delivers the best and most comprehensive video game and entertainment coverage, including news, reviews, trailers, walkthroughs, and guides for PS4, Xbox One, Nintendo Switch, PC, and. Scientifically educated, he believed in séances and fairies. S1 E6 Oct 27, 2014. The place for the best new music. Starting in July 2017, new episodes of The Adventures of Harry Nile and The Further Adventures of Sherlock Holmes are being produced on a less frequent basis. We invite your comments about our web site, our television programming, and any books you want to. I also added several more sound clips to JJ Abrams' Star Trek (2009). Free-eBooks. 2019 Episode #2. A lifelong fan of Doyle's detective fiction, Fry has narrated the. ReadAnyBook. ) 1007 [none] The Adventures of Sherlock Holmes (LibriVox version 3, MP3) Digital Media: 12: XW 2010-07-31; LibriVox (digital library of. TITLE TIME; 1 The Stranger 2:38: 2 59 Missed Calls 1:53: 3 Murder This Time 4:01: 4 Agra 4:44: 5 Absolute Trust 2:04: 6 Running Away 4:04: 7 Cheating 3:31: 8. Foundations for Discipleship. SCETV is South Carolina's public broadcasting, storytelling, South Carolina ETV. Holmes Erzfeind, das gefährliche Verbrechergenie Farley Straker, hat sich in den Besitz einer Formel zum Bau einer Bom…. Discover the enchanting vibes of Sherlock Holmes games through this original soundtrack that includes music from the latest three adventures. Podcast EDF023: The Beach Cottage written by Angela. Sherlock Holmes (2009) DVDScr 19. ch has been informing visitors about topics such as Music Downloader for MP3, MP3 Donwold and MP3SKULL Free Download. µTorrent® (uTorrent) Web torrent client for Windows -- uTorrent is a browser based torrent client. Sherlock Holmes is the name given to the TV series of Sherlock Holmes adaptations produced by British television company Granada Television between 1984 and 1994, with the first two series bearing the title The Adventures Of Sherlock Holmes on screen and being followed by subsequent sub-series bearing the titles of the other short story. Search Profiles. How to download mp3, mp3juice free online to mp3 converter If you are a music downloader, if you want to download a home video that lacks music, or create a ringtone, then you definitely need a lot of MP3 resources. He is an OTR researcher and writer and a former OTR newsletter editor. 39 MB The Newly Discovered Casebook Of Sherlock Holmes - S01 - E02 - The Mystery Of The Obese Escapologist. Along with the feature film, the Blu-Ray disc includes the following extras: Line-o-Rama (5:35) - These are alternate takes from what's in the finished film. Gujarati indic input 2 download 64 bit. The Flash Season 6 7 months ago. Get corrections from Grammarly while you write on Gmail, Twitter, LinkedIn, and all your other. Drivery 2. Sherlock Holmes Torrent Results: Sherlock Holmes 0 hour(s) and 30 minutes - TV Series - Based on the characters created by Arthur Conan Doyle: Dr. A lifelong fan of Doyle's detective fiction, Fry has narrated the. Today was proving to be more eventful than I'd ever imagined it would have been. Jind Mahi (Cover Song) No Blame. Please login or register to post messages and view our exclusive members-only content. Before television, radio provided entertainment by presenting radio plays and programs of mystery, intrigue, and comedy. How to download mp3 in mp3juices. Adam Mchomvu – Man2Man Ft. Starting in July 2017, new episodes of The Adventures of Harry Nile and The Further Adventures of Sherlock Holmes are being produced on a less frequent basis. Watson chronicles here some of the more interesting detective cases that he and his good friend, Mr. Powys Quoits 2. Im deutschsprachigen Raum ist er hauptsächlich durch die BBC-Fernsehserie Sherlock bekannt geworden, für die er zusammen mit Steven Moffat das Konzept entwickelte, mehrere Episoden schrieb und in der er als Mycroft Holmes zu sehen ist. The Further Adventures of Sherlock Holmes. This software will read aloud the Sherlock Holmes stories to. Download Sherlock Special: The Abominable Bride subtitles. Limited edition 12" vinyl in shrink-wrapped printed sleeve with paper inner. Everyday low prices on a huge range of new releases and classic fiction. Video Bana De. 2020-02-18T16:33:38Z Comment by sherry. Download a Torrent from oTorrents. Cosham captures the genius of Sherlock Holmes, the faithful friendship of Dr. Best fiction books are always available here - the largest online library. Sherlock Holmes watches the world's most libertarian sport [updated] Well, not Sherlock Holmes himself, but his author, Arthur Conan Doyle, who wrote the following about the world's most libertarian sport, Australian football, after watching the 1920 VFL Grand Final between Carlton & Richmond:. A-string = middle finger. Watch Sherlock Holmes (2009) Full Movie Online, Free Download Sherlock Holmes (2009) Full Movie, Sherlock Holmes (2009) Full Movie Download in HD Mp4 Mobile Movie. S1 E4 Oct 13, 2014. It's in 4/4 time signature but may as well be counted in cut time because it's so fast. Find Daily Deals, read previews & reviews and get book recommendations. mp3 04 When Your Mind's Made Up. Then transfer over to a single thumbdrive, a few DVDs, or several CD's and you have it all offline. Users can start, stop or pause downloads, set bandwith limitations, auto-extract archives and much more. Please read the License before distributing this eBook. Jack Benny is Sherlock Holmes in the preview to "The Hound of the Baskervilles". 1 & 2 02 - 1m1B Main Titles 03 - 2m3 Holmes' Room 04 - 2m4AS 05 - 2m4BS-5-6S Offends Mary. Index of : /music: Name Size ; Parent Directory - All I Need Is the Girl. parts: 1: Rip: WEB-DL: release: filename: Sherlock The Abominable Bride. Investigator will. Testing: All testing was done on a Windows 10 x64 PC running calibre x64 and using voices of various dialects of English. 3M : Against_The_Wind. Chogada With Loveyatri Aayush Sharma Warina Hussain Darshan Raval Lijo-DJ Chetas. Visit Tunefind for music from your favorite TV shows and movies. The BBC Presents: Sherlock Holmes is a British radio show produced by BBC between 1988 and 2010, starring Clive Merrison & Roger Rees as Sherlock Holmes, and Michael Williams, Crawford Logan & Andrew Sachs as Dr. Foundations for Discipleship. CD MP3 - PR2. Includes unlimited streaming of Index Hole via the free Bandcamp app, plus high-quality download in MP3, FLAC and more. Download it once and read it on your Kindle device, PC, phones or tablets. 셜록 Mp3 Musik Indonesia Kualitas CD Lagu Terbaru Full Album Gudang Lagu Upload Mp3 Gratis Index of mp3 Unduh Lagu Terbaru Mudah Musik Pop Band Indie Dangdut Koplo New Lagu Reggae Lagu K-Pop Korea Request Lagu Semua Ada Di UyeShare. He began to lead her, nudge her along to follow his dance steps. Tutt Chali Yaari. Imagination Theater. Access to over 48,000 old time radio shows in our club members area you can listen to and download in the standard mp3 format. 99/month, 3 months free. Index of /Series /The End of the F***ing World / season 2. Seminars and Lectures 2008-09 The Vital Issues Program is a series of seminars organised by the Parliamentary Library for the benefit of Senators and Members. Now Audible is proud to present Arthur Conan Doyle's Sherlock Holmes: The Definitive Collection, read by Stephen Fry. Best fiction books are always available here - the largest online library. “The Adventures of Sherlock Holmes and Dr. One of the most impressive new features in Mac OS 8. A first season tells how doctor John Watson, a veteran of Afghanistan war, returns to London, where he meets Sherlock Holmes, an unusual private detective. The domain subtitulosespanol. [ About file ] Name: 38 - [DivX Ita] Sherlock Holmes -38- I pince-nez dorati. Sherlock and John Watson return in a contemporary take on Conan Doyle's iconic adventures. We get glimpses of it in use at various times throughout the Canon, from a biographical reference to a logging of crime. Be aware that documentaries, foreign, animated and black & white movies have their own sections. Join thousands of satisfied visitors who discovered Skull MP3 Free Download com, 4 Shared MP3 Download and EMP3WORLD com. Before television, radio provided entertainment by presenting radio plays and programs of mystery, intrigue, and comedy. Tainu Fer Pata Laggu. The Return of Sherlock Holmes By Arthur Conan Doyle This is a copyrighted computer-generated audio performance of Project Gutenberg's public domain book, "The Return of Sherlock Holmes", by Arthur Conan Doyle. Download Mp3 Free, There are 20 song lists that you can download. Free Download SHERLOCK HOLMES 2 : A GAME OF SHADOWS 2011 CAM Subtitle Indonesia Download Subtitle Indonesia hanya di Subtitle ID, Subtitle indonesia dari film terbaru. More Sherlock! Hi, I've read the original stories but can anyone recommend any non-Conan Doyle Holmes spin-off books. Sherlock Season 4 Episode 1 S04E01 (2017) 720p. Lynne Hayes Freeland Show. Directed by Etan Cohen. Johnny Madero, Pier 23. 99/month, 3 months free. Give your blog the perfect home. Macbook Pro; Calibre (eReader software) Essential OS X Freeware: Top Ten; Reviews. Best fiction books are always available here - the largest online library. Scientifically educated, he believed in séances and fairies. Sherlock Holmes, have encountered during their association. A radio station may help, your friends may have an idea. VDownloader offers more functionality than any other video downloading software currently on the market. Format: MP3 / Bitrate: 96 Kbps. Download Lagu SHINee Sherlock. Wherever you might be - Oboom provides access to your media via mobile, software or web. Standard definition movies, that were made last century, ripped from a retail source (DVDRip, BDRip), excluding R5 DVDRips. Sunday Suspense Feluda Hatyapuri Satyajit Ray Mirchi 98 3. Sherlock Holmes, have encountered during their association. 97 • Four MP3-CDs. S1 E6 Oct 27, 2014. Now Audible is proud to present Arthur Conan Doyle's Sherlock Holmes: The Definitive Collection, read by Stephen Fry. January 10 2011. epub The Further Adventures of Sherlock Holmes - The Ripper Legacy - David Stuart Davies. english subtitles. Typing "Sherlock Holmes" into the search engine of the "Internet Movie Database" at www. Sherlock Holmes - for intense sequences of violence and action, some startling images and a scene of suggestive material. Spanish General: Foro para discusiones de temática general de eMule. Plug in speaker to Sherlock recorder 4. Your Newsletter is MY LIFELINE TO IRELAND. Free audio books by genre that you can download in mp3, iPod and iTunes format for your portable audio player. Index of /dl4/Music/Series/ File Name File Size Date; Parent directory/--11. Here in one place are the timeless concepts that emerged from more than. TITLE "Sherlock (Music From Series Three)" FILE "01 - How It Was Done. Also, if you have an iPod, iTunes has the soundtrack, which you can legally download to your iPod. 81 GB: The Fugitive TV Series (1963-1967) - 4 Seasons Complete Posted by Stockman1952 in TV. Sherlock Holmes Search Engine What's that? Sherlock Holmes is a universal search engine – a system for gathering and indexing of textual, image, and audio data (text files, web pages, ), both locally and over the network. All this is audio track and added to the movie. Combining the iconic sounds of classical orchestra instruments with a modern electronic ambient style, this collection offers more than 50 tracks and is available in MP3 320 kbps. Please login or register to post messages and view our exclusive members-only content. Thanks to chye who didn't hang around MobileRead for long but did create a TTS plugin for the calibre Viewer. Also you will find select old Sherlock Holmes Radio Shows, Books, Dramas, Broadcasts, and other audio in the Audio section. There are tens of thousands of students, artists, designers, researchers, and hobbyists who use Processing. Improve your workload by saving your search criteria as a Search Profile. It would be best to buy it on eBay or Amazon. PLAY FREE NOW!. kids/FAQ File Index Part 2/2 misc-kids/firearms-safety - misc. ONES MEDIA SHERLOCK HOLMES ULTIMATE COLLECTION [OTR-5CD-SherlockHolmes] - OLD TIME RADIO - 5 CD-ROM - 476 mp3 Sherlock Holmes is a fictional detective created by Scottish author and physician Sir Arthur Conan Doyle. How To : Download free mp3 music directly to your PSP The PSP can do a lot of things. 9a27dcb523 Sherlock Holmes: A Game of Shadows 2011 BRRip 720p Dual Audio In Hindi English ESub IMDb Rating: 7. [Sun, 29 Mar 2020 11:56:13] The Platform – Recenzie · [Sat, 28 Mar 2020 17:43:32]. Titles include Eurus' song from the Sherlock episode The Final Problem, as well as a song from Shakespeare's Twelfth Night. More than 1 year ago. 1 decade ago. January 24 2012. Skimmed from all corners of the internet, I've tried really hard to make sure the air dates are accurate. mariamachowska Mp3 Database 2:27:19. Winner of the 2014 Audie Award for Classics, Sir Arthur Conan Doyle's Sherlock Holmes tales are rightly ranked among the pivotal works of mystery and detective fiction. 0: video Track nr. All 12 songs featured in Sherlock season 3 episode 1: The Empty Hearse, with scene descriptions. All of our materials have been verified through OTTER, the hobby's premier database program. Discotek Adds Hols, Prince of the Sun Film, Sherlock Hound TV Anime (Apr 9, 2014) S. From Mercury to Mars: The Shadow of the Great Detective: Orson Welles and Sherlock Holmes on the Air I predict that one day an obsessed fan — maybe you, dear reader — will devise a complete and thorough catalogue of all the characters that Orson Welles ever played (or claimed to have played) on radio. I hope to review this four-CD set in the next DM. John Agnello, the featured producer in MastersFromTheirDay. AUTHORED BY JIM COLLINS. 9M : A Summer Place ( Moviemag. com - best resource for reading books. Now Audible is proud to present Arthur Conan Doyle's Sherlock Holmes: The Definitive Collection, read by Stephen Fry. Genre Soundtrack Comment by Đàm Gia Bảo. 48 Million at KeywordSpace. Great Mystery Dramas - Sherlock Holmes - Harry Nile. December 21 2012 at 02:45. loading player Audio Download: mp3 5/29/2019. He has a vast criminal network that he manages - as a "consulting criminal" - largely as a way to stave off the boredom of a world that poses no challenges for his incredible intellect. sherlock-holmes: KCBS : Choose : AUDIO > News Interviews and Analysis (mp3 files) pour rechercher des sujets en anglais : google english exemple :. From the stars of Mystery Science Theater 3000 comes RiffTrax, hilarious audio commentaries for your favorite - and not-so-favorite - movies!. ReadAnyBook. 48 Million at KeywordSpace. Sherlock Holmes (/ ˈ ʃ ÉœË r l É' k ˈ h oÊŠ m z / or /-ˈ h oÊŠ l m z /) is a fictional private detective created by British author Sir Arthur Conan Doyle. The very name of Sherlock Holmes is eponymous, as the The New Shorter Orford English Dictionary defines it: "An investigator of mysteries, esp. Effective September 11, 2016 selected episodes of The Classic Adventures of. Movies Tv Shows Sound Effects Video Games People Misc Request Store Links About this Site Twitter. Be aware that documentaries, foreign, animated and black & white movies have their own sections. O LTV nasceu há 13 anos como uma comunidade de legenders. To use it, you need to save this file as "adventuresherlockholmes_01_doyle. Get a year of Deezer Premium for $99. Upload musics to your Website and share with your friends with free hosting. We invite your comments about our web site, our television programming, and any books you want to. Added a few sound clips from Iron Man 3. Sherlock Holmes had quite the index. 63MB) Previously America First. Files on your recorder should start plaing back in a few seconds 6. Adjust volume to your comfort level 7. Also please see our related collection:800 Free eBooks for iPad, Kindle & Other Devices. Sherlock opens his eyes. More than 600 Live TV channels and 45000 Complimentary movies TV shows and documentaries. Watch Sherlock Holmes (2009) Full Movie Online, Free Download Sherlock Holmes (2009) Full Movie, Sherlock Holmes (2009) Full Movie Download in HD Mp4 Mobile Movie. Index » Music ; 1 2 3 Jump to. February 21 2013 at 16:00. Other readers will always be interested in your opinion of the books you've read. Gwacheya Gurbakash. Files on your recorder should start plaing back in a few seconds 6. In 1987, Bert Coules, a freelance writer for radio, told BBC about his idea of adapting The Hound of the Baskervilles. Library Ed. Readme (PDF). April 16 to May 24, 2020. -Sherlock Holmes and Inspector Lestrade. Parses MP3 and OGG files, and stores their ID3 tags. Buy Tickets Show Info. The Further Adventures of Sherlock Holmes. Macbook Pro; Calibre (eReader software) Essential OS X Freeware: Top Ten; Reviews. 15 kb: number of downloads: 480521: Download: Back to Sherlock. Index of TV Series. Includes unlimited streaming of Index Hole via the free Bandcamp app, plus high-quality download in MP3, FLAC and more. Your Newsletter is MY LIFELINE TO IRELAND. wav" WAVE TRACK 01 AUDIO TITLE "How It Was Done" PERFORMER "David Arnold & Michael Price" FLAGS DCP INDEX 01 00:00:00 FILE "02 - God Rest His Soul. 10ml glass vial of diluted Quinoline Yellow sits in case spine. Just uploaded a bunch of Sherlock Holmes OTR and newer shows, with corrected metadata. Typically, this a mix of four basic elements: speech (dialogue, voice-overs), environment, sound effects, music. mariamachowska Mp3 Database 2:27:19. It was a violin. Adventure 1: “A Scandal in Bohemia” The King of Bohemia seeks the help of Sherlock Holmes in securing a picture that could be used against him in the political scene. sherlock s04e01 free download - Sherlock FREE, Adventures of Sherlock Holmes: Secret of the Silver Earring demo, Review Sherlock, and many more programs. Carlton read by M. The Hobbit An Unexpected Journey (2012) BluRay Rip. Music: Topic Spotify to mp3? by sinbad December 7, 2016 3:15 pm. Browse your favourite books and read them free in our e-reader. Podcast EDF023: The Beach Cottage written by Angela. 0-t találtam eddig. Index of /Series /The End of the F***ing World / season 2. Sherlock Holmes is a fictional detective of the late 19th and early 20th centuries, who first appeared in publication in 1887. Willie Comer-Matinpour. I found that to get all 566 mp3 files just go to the original post link and then click: "566 files VBR MP3" A single zip file of about 10 Gigabytes will download in the background of your browser. Best Of: Local Food And Entertainment. 32 GB: 39: 65: Howard Stern Show JUL. November 2014 - I Hear of Sherlock Everywhere facebook. Most episodes were written by the team of Dennis Green and Anthony Boucher; some early episodes were written by Green and Leslie Charteris. mariamachowska Mp3 Database 39:19. As it turns out, Mycroft and. Sherlock Holmes: The Complete Collection (All the novels and stories in one volume) - Kindle edition by Doyle, Arthur Conan. Download Mp3 Free, There are 20 song lists that you can download. Sherlock's mother has died, his father has disappeared in India and his sister is The Holmes family seems to be falling apart, and not even brother Mycroft canSnake Bite (Young Sherlock Holmes) [Andrew Lane] on Amazon. 5/10 Genre: Action, Adventure, Crime Director: GuyNonton Film Sherlock Holmes (2009) BluRay 480p 720p mp4 mkv Hindi English Sub Indo Watch Online Free Streaming Full HD Movie Download via Google Drive, Layarkaca21, LkTv21, Indoxxi, GanoolSherlock Holmes A Game Of Shadows (2011) Hindi. Drivery 2. Linux Mint is funded by its community. Many of these shows can be found at the Sherlock Holmes Adventures Podcast and also on Sherlock Holmes A Baker Street Dozen (most are also available as MP3 downloads). In the name of the LORD, the Everlasting God--Genesis 21,33. You can also watch top players and compete for prizes. 2020-02-18T13:36:44Z Comment by Norbert Giel. Keen, Tracer Of Lost Persons. February 21 2013 at 16:00. Be sure to check out the accompanying artwork. Hometown High-Q. Metal Detector Index The products listed below are in alphabetical order, and the (number*) after each item represents the number of reviews. The result is a series of authored and coauthored books, each looking at the question from a different angle, written for leaders in the business and social sectors. AL6 9EQ; £16. Hyde as originally narrated in Robert Louis Stevenson's 1886 novella Strange Case of Dr Jekyll and Mr Hyde. Prison Break TV series (season 1, 2, 3, 4, 5) all episodes 480p / 720p. Credit this piece by copying the following to your credits section: Rising Tide Kevin MacLeod (incompetech. Biography Documentary hosted by Liam Dale and published by Others in 1986 - English narration [] Cover[] InformationThis Documentary has been designed to explore the legend of Sherlock Holmes and take you on a journey of discovery throughout his life and times and that of his creator Sir Arthur Conan Doyle. Stewart Wright has contributed many broadcast logs on Old- and New-Time Radio drama series. Print and download in PDF or MIDI The Game is On. vozMe: From text to speech (speech synthesis). Kobo Touch, eReaders and eBooks: Home and Index; Kobo Touch; Free e-Books; Calibre (eReader software) Linux and Ubuntu. November 2014 - I Hear of Sherlock Everywhere facebook. The latest news, sports, music and entertainment videos on Dailymotion. Discover books by Arthur Conan Doyle, featuring the Sherlock Holmes series, with resources to help teach British literature. Pedig eléggé benne élnek a köztudatban. Standard definition movies, that were made last century, ripped from a retail source (DVDRip, BDRip), excluding R5 DVDRips. When done TURN OFF VOICE RECORDER BEFORE unplugging speaker. February 21 2013 at 16:00. File size is 13. By downloading media from this site,you are agree to delete the file within 24 hours after you download,or if you decide to keep it,please buy original CD. The stories followed the publication of The Hound of the Baskervilles in 1902, which had created intense pressure for Doyle to revive the escapades of his famous sleuth. GUNSMOKE First Show: Jun 26, 1952 Last Show: Jun 18, 1961 Number Shows: 480 shows, 2 auditions, 5 hour tribute Audition Shows: Jun 11, 1949, Jul 13, 1949 Series Description: Gunsmoke is one of those long-running classic Old-Time Radio shows that everyone knows and remembers. Is the difference as big as you expected? Suggestions & Contact information. General Index. Watch Sherlock Holmes (2009) Full Movie Online, Free Download Sherlock Holmes (2009) Full Movie, Sherlock Holmes (2009) Full Movie Download in HD Mp4 Mobile Movie. Sherlock Holmes (2009) BRRip 420p 300MB Dual Audio Sherlock Holmes (2009) BRRip 420p 300MB Dual Audio -=: Movie Info :=- Directed by Guy Ritchie Produced by Joel Silver Arundhati (2009) Tamil – BDRip – 1CD – Xvid. Royalty free music is what everyone wants, because royalties suck. ch has been informing visitors about topics such as Music Downloader for MP3, MP3 Donwold and MP3SKULL Free Download. CD MP3 - PR2. 셜록 Mp3 Musik Indonesia Kualitas CD Lagu Terbaru Full Album Gudang Lagu Upload Mp3 Gratis Index of mp3 Unduh Lagu Terbaru Mudah Musik Pop Band Indie Dangdut Koplo New Lagu Reggae Lagu K-Pop Korea Request Lagu Semua Ada Di UyeShare. Garden gnomes, Gnomeo & Juliet, recruit renown detective, Sherlock Gnomes, to investigate the mysterious disappearance of other garden ornaments. Free Old Time Radio Shows from "The Golden Age of Radio". Sherlock Holmes: A Game of Shadows (2011) | සෙවණැලි සමග සෙල්ලම් [සිංහල උපසිරසි සමඟ] Jun 8, 2013 All, Featured Articles, MaxxA, Sinhala Subtitle,. Stream or download tens of thousands of your favorite Old Radio Programs (OTR) in MP3 format. Stan offers unlimited access to thousands of hours of entertainment, first-run exclusives, award-winning TV shows, blockbuster movies and kids content. You, sitting between the two men, leaned your head against the headrest of the seat, eyes closed as you think over this case. TITLE TIME; 1 The Stranger 2:38: 2 59 Missed Calls 1:53: 3 Murder This Time 4:01: 4 Agra 4:44: 5 Absolute Trust 2:04: 6 Running Away 4:04: 7 Cheating 3:31: 8. It would be best to buy it on eBay or Amazon. Jekyll and Mr. RT: #Literature #StudyNotes #SherlockHolmes #TheMusgraveRitual #PDF #MP3 #19thCenturyLiterature #BritishLiterature. The Radio Spirits content library consists of more than 60,000 classic radio shows. Mark Gatiss [ˈgeɪ. OBOOM offers you 50 GB free storage space for all your. He has a vast criminal network that he manages - as a "consulting criminal" - largely as a way to stave off the boredom of a world that poses no challenges for his incredible intellect. Letter From Wingfield Farm. Also, if you have an iPod, iTunes has the soundtrack, which you can legally download to your iPod. January 10 2011. Every day, thousands of people around the world write about music they love — and it all ends up here. File size is 6. THIS WEEK ON IMAGINATION THEATER. The Return of Sherlock Holmes By Arthur Conan Doyle This is a copyrighted computer-generated audio performance of Project Gutenberg's public domain book, "The Return of Sherlock Holmes", by Arthur Conan Doyle. I think I would have been blown away however experienced a writer I was, but with ‘ Road’ being my first story I was utterly overwhelmed. Created by Steven Moffat and Mark Gatiss, it stars Benedict Cumberbatch as Sherlock Holmes and Martin Freeman as Doctor John Watson. This replacement for Apple's Find File function does much more than just find files. The Return of Sherlock Holmes by Sir Arthur Conan Doyle is the second collection of short stories featuring the famous detective Sherlock Holmes. Watson: The Treasures of Agra” was made in 1983 and became the fourth part of Russian series about Sherlock Holmes. Reilly as Watson, Ken Best of the UConn360 podcast traveled to Avery Point to speak with her. It’s easy to get started―all you need is a library card! Learn more or download the app below. Sherlock Holmes Torrent Results: Sherlock Holmes 0 hour(s) and 30 minutes - TV Series - Based on the characters created by Arthur Conan Doyle: Dr. With Will Ferrell, John C. February 21 2013 at 16:33. Find books that have Select File Types Select eBook Library Collections Select eBook Library Collections The Advanced Search uses custom search algorithms to get you the best possible results. mp3 02 If You Want Me. parts: A Case of Identity (Sherlock Holmes) A Scandal in Bohemia (Sherlock Holmes) The Adventure of the Beryl Coronet (Sherlock Holmes) The Adventure of the Blue Carbuncle (Sherlock Holmes) The Adventure of the Copper Beeches (Sherlock Holmes) The Adventure of the Engineer's Thumb (Sherlock Holmes) The Adventure of the Noble Bachelor (Sherlock Holmes) The Adventure of the Red-Headed League. -Sherlock Holmes and Inspector Lestrade. All you need is an MP3 player and an hour or so to spare. 63/-2019-02-15 00:19: 12. AL6 9EQ; £16. A collection of downloadable worksheets, exercises and activities to teach Sherlock holmes, shared by English language teachers. We invite your comments about our web site, our television programming, and any books you want to. Sherlock, Season 1, episode 1 transcript: A Study in Pink, part 1 It's two years late. wav" WAVE TRACK 02 AUDIO TITLE "God Rest His Soul" PERFORMER "David Arnold & Michael Price" FLAGS DCP INDEX 01 00:00:00. Welcome to the continually updated CBS Local Daily Story Stream. Sherlock ran a website called The Science Of Seduction, on which he gave advice on the best ways to get laid, wrote blog entries detailing the results of his various sexual 'experiments' and generally contributed to the stereotype of 'every gay man is a sex-mad playboy'. Index of : /music: Name Size ; Parent Directory - All I Need Is the Girl. TV show Sherlock season 1, 2, 3, 4, 5 download full episodes and watch in HD (720p) quality free, without registration. Includes unlimited streaming of Index Hole via the free Bandcamp app, plus high-quality download in MP3, FLAC and more. 2/3 Sherlock comes. Sherlock Hommes 6/5/2019. wav" WAVE TRACK 02 AUDIO TITLE "God Rest His Soul" PERFORMER "David Arnold & Michael Price" FLAGS DCP INDEX 01 00:00:00. Buy Tickets Show Info. html" into a folder where "adventuresherlockholmes_01_doyle. 9M : A Summer Place ( Moviemag. 1: audio ISFT: VirtualDubMod 1. tales are rightly ranked among the pivotal works of mystery and detective fiction. Included in this collection are all four full-length Holmes novels and more th. In Episode 51 of The ASMR Podcast we introduce a new artist, Sherlock ASMR, with a whispered reading of 'A Scandal in Bohemia: Part 1'. Actress Indica Watson sings old English folk songs in the character of Sherlock Holmes' secret younger sister Eurus from popular television crime drama Sherlock. Sherlock season 1 An excellent interpretation of famous Conan-Doyle stories produced by BBC professionals made a great success exceeding all expectations. Adjust volume to your comfort level 7. Denver Restaurant Week Celebrates The City’s Culinary Scene. Winner of the 2014 Audie Award for Classics, Sir Arthur Conan Doyle's Sherlock Holmes. The main roles in the “Sherlock” TV series are played Benedict Cumberbatch and Martin Freeman, brilliant actors who are perfectly accustomed to their roles. pdf - Free ebook download as PDF File (. February 4 2013 at 21:59. mp3" is stored.